osu file format v14

[General]
AudioFilename: Ending Theme Tokohana.mp3
AudioLeadIn: 1500
PreviewTime: 63067
Countdown: 0
SampleSet: None
StackLeniency: 0.7
Mode: 3
LetterboxInBreaks: 0
WidescreenStoryboard: 0

[Editor]
DistanceSpacing: 0.5
BeatDivisor: 4
GridSize: 4
TimelineZoom: 3.199998

[Metadata]
Title:Tokohana
TitleUnicode:トコハナ
Artist:yanaginagi
ArtistUnicode:やなぎなぎ
Creator:richardfeder
Version:7K MX
Source:ブラック・ブレット
Tags:Black Bullet ending victorica_db simple_star Zan -
BeatmapID:412053
BeatmapSetID:170144

[Difficulty]
HPDrainRate:8
CircleSize:7
OverallDifficulty:8
ApproachRate:5
SliderMultiplier:1.4
SliderTickRate:1

[Events]
//Background and Video events
0,0,"bg1.jpg",0,0
//Break Periods
//Storyboard Layer 0 (Background)
//Storyboard Layer 1 (Fail)
//Storyboard Layer 2 (Pass)
//Storyboard Layer 3 (Foreground)
//Storyboard Sound Samples
//Background Colour Transformations
3,100,163,162,255

[TimingPoints]
395,400,4,2,0,20,1,0
396,-117.647058823529,4,2,0,20,0,0
11395,-166.666666666667,4,2,0,20,0,0
13195,-200,4,2,0,20,0,0
14795,-250,4,2,0,20,0,0
16395,-333.333333333333,4,2,0,20,0,0
17995,-88.4955752212389,4,2,0,20,0,0
19073,355.029585798817,4,2,0,20,1,0
53155,-133.333333333333,4,2,0,20,0,0
63096,-100,4,2,0,20,0,0
63895,-58.8235294117647,4,2,0,20,0,0
63984,-50,4,2,0,20,0,0
64072,-200,4,2,0,20,0,0
64516,-100,4,2,0,20,0,0

[HitObjects]
256,192,395,5,0,0:0:0:0:
109,192,595,128,0,995:0:0:0:0:
402,192,795,128,0,1395:0:0:0:0:
256,192,995,128,0,1595:0:0:0:0:
36,192,1395,128,0,1795:0:0:0:0:
329,192,1595,128,0,2195:0:0:0:0:
182,192,1795,128,0,2395:0:0:0:0:
475,192,2195,128,0,2595:0:0:0:0:
329,192,2395,128,0,2995:0:0:0:0:
182,192,2595,128,0,3195:0:0:0:0:
402,192,2995,128,0,3395:0:0:0:0:
256,192,3195,128,0,3795:0:0:0:0:
109,192,3395,128,0,3995:0:0:0:0:
329,192,3795,128,0,4195:0:0:0:0:
182,192,3995,128,0,4595:0:0:0:0:
36,192,4195,128,0,4795:0:0:0:0:
329,192,4595,128,0,4995:0:0:0:0:
182,192,4795,128,0,5395:0:0:0:0:
475,192,4995,128,0,5595:0:0:0:0:
109,192,5395,128,0,5795:0:0:0:0:
256,192,5595,128,0,5995:0:0:0:0:
402,192,5795,128,0,6595:0:0:0:0:
256,192,6195,1,0,0:0:0:0:
256,192,6595,1,0,0:0:0:0:
256,192,6795,1,0,0:0:0:0:
36,192,6795,1,0,0:0:0:0:
475,192,6795,1,0,0:0:0:0:
109,192,6995,128,0,7395:0:0:0:0:
402,192,7195,128,0,7795:0:0:0:0:
256,192,7395,128,0,7995:0:0:0:0:
36,192,7795,128,0,8195:0:0:0:0:
329,192,7995,128,0,8595:0:0:0:0:
182,192,8195,128,0,8795:0:0:0:0:
402,192,8595,128,0,8995:0:0:0:0:
256,192,8795,128,0,9395:0:0:0:0:
109,192,8995,128,0,9595:0:0:0:0:
329,192,9395,128,0,9795:0:0:0:0:
36,192,9595,128,0,10195:0:0:0:0:
182,192,9795,128,0,10395:0:0:0:0:
475,192,10195,128,0,10595:0:0:0:0:
329,192,10395,128,0,10995:0:0:0:0:
182,192,10595,128,0,11395:0:0:0:0:
475,192,10995,128,0,11395:0:0:0:0:
36,192,11195,128,0,11395:0:0:0:0:
256,192,11395,128,0,12795:0:0:0:0:
36,192,13195,128,0,17995:0:0:0:0:
256,192,14795,128,0,17995:0:0:0:0:
475,192,16395,128,0,17995:0:0:0:0:
182,192,19073,128,0,20493:0:0:0:0:
475,192,19073,1,0,0:0:0:0:
36,192,19073,1,0,0:0:0:0:
256,192,19073,1,0,0:0:0:0:
329,192,19073,1,0,0:0:0:0:
402,192,19250,1,0,0:0:0:0:
109,192,19250,1,0,0:0:0:0:
329,192,19428,1,0,0:0:0:0:
475,192,19428,1,0,0:0:0:0:
36,192,19428,1,0,0:0:0:0:snare1.wav
475,192,19605,128,0,20493:0:0:0:0:
256,192,19605,1,0,0:0:0:0:
329,192,19783,1,0,0:0:0:0:
36,192,19783,1,0,0:0:0:0:
109,192,19960,1,0,0:0:0:0:
402,192,20138,1,0,0:0:0:0:
256,192,20138,1,0,0:0:0:0:
36,192,20138,1,0,0:0:0:0:snare1.wav
329,192,20315,1,0,0:0:0:0:
402,192,20493,128,0,21913:0:0:0:0:
109,192,20493,1,0,0:0:0:0:
36,192,20493,1,0,0:0:0:0:
256,192,20670,1,0,0:0:0:0:
36,192,20848,1,0,0:0:0:0:snare1.wav
329,192,20848,1,0,0:0:0:0:
182,192,20848,1,0,0:0:0:0:
256,192,21025,1,0,0:0:0:0:
475,192,21203,1,0,0:0:0:0:
109,192,21203,1,0,0:0:0:0:
256,192,21380,1,0,0:0:0:0:
36,192,21558,1,0,0:0:0:0:snare1.wav
475,192,21558,1,0,0:0:0:0:
182,192,21558,1,0,0:0:0:0:
329,192,21735,1,0,0:0:0:0:
256,192,21913,128,0,23333:0:0:0:0:
475,192,21913,1,0,0:0:0:0:
36,192,21913,1,0,0:0:0:0:
36,192,22090,128,0,22268:0:0:0:0:
329,192,22090,1,0,0:0:0:0:
402,192,22268,1,0,0:0:0:0:
182,192,22268,1,0,0:0:0:0:
475,192,22268,1,0,0:0:0:0:snare1.wav
36,192,22445,128,0,22623:0:0:0:0:
329,192,22445,1,0,0:0:0:0:
475,192,22623,1,0,0:0:0:0:
182,192,22623,1,0,0:0:0:0:
36,192,22800,128,0,22978:0:0:0:0:
329,192,22800,1,0,0:0:0:0:
402,192,22978,1,0,0:0:0:0:
182,192,22978,1,0,0:0:0:0:
475,192,22978,1,0,0:0:0:0:snare1.wav
36,192,23155,128,0,23333:0:0:0:0:
329,192,23155,1,0,0:0:0:0:
109,192,23333,128,0,24575:0:0:0:0:
475,192,23333,1,0,0:0:0:0:
182,192,23333,1,0,0:0:0:0:
475,192,23510,128,0,23688:0:0:0:0:
329,192,23510,1,0,0:0:0:0:
36,192,23688,1,0,0:0:0:0:snare1.wav
256,192,23688,1,0,0:0:0:0:
402,192,23688,1,0,0:0:0:0:
475,192,23865,128,0,24043:0:0:0:0:
182,192,23865,1,0,0:0:0:0:
36,192,24043,1,0,0:0:0:0:
329,192,24043,1,0,0:0:0:0:
475,192,24220,128,0,24398:0:0:0:0:
182,192,24220,1,0,0:0:0:0:
402,192,24398,1,0,0:0:0:0:
36,192,24398,1,0,0:0:0:0:snare1.wav
256,192,24398,1,0,0:0:0:0:
36,192,24575,1,0,0:0:0:0:
475,192,24575,1,0,0:0:0:0:snare1.wav
182,192,24664,1,0,0:0:0:0:
329,192,24664,1,0,0:0:0:0:snare1.wav
256,192,24753,128,0,25818:0:0:0:0:
36,192,24753,1,0,0:0:0:0:
475,192,24753,1,0,0:0:0:0:snare1.wav
329,192,24930,1,0,0:0:0:0:
182,192,24930,1,0,0:0:0:0:
402,192,25108,1,0,0:0:0:0:
475,192,25108,1,0,0:0:0:0:snare1.wav
36,192,25108,1,0,0:0:0:0:
329,192,25286,1,0,0:0:0:0:
109,192,25286,1,0,0:0:0:0:
182,192,25463,1,0,0:0:0:0:
475,192,25463,1,0,0:0:0:0:
329,192,25641,1,0,0:0:0:0:
109,192,25641,1,0,0:0:0:0:
475,192,25818,1,0,0:0:0:0:
36,192,25818,1,0,0:0:0:0:snare1.wav
402,192,25818,128,0,26173:0:0:0:0:
182,192,25818,1,0,0:0:0:0:
256,192,25907,128,0,26173:0:0:0:0:
109,192,25996,128,0,26173:0:0:0:0:
182,192,26173,128,0,26706:0:0:0:0:
36,192,26173,1,0,0:0:0:0:
475,192,26173,1,0,0:0:0:0:
329,192,26351,1,0,0:0:0:0:
36,192,26528,1,0,0:0:0:0:
329,192,26528,1,0,0:0:0:0:
475,192,26528,1,0,0:0:0:0:snare1.wav
36,192,26706,128,0,27238:0:0:0:0:
402,192,26706,1,0,0:0:0:0:
256,192,26883,1,0,0:0:0:0:
475,192,26883,1,0,0:0:0:0:
329,192,27061,1,0,0:0:0:0:
402,192,27238,128,0,27593:0:0:0:0:
109,192,27238,1,0,0:0:0:0:
256,192,27238,1,0,0:0:0:0:
475,192,27238,1,0,0:0:0:0:snare1.wav
182,192,27416,1,0,0:0:0:0:
182,192,27593,128,0,29013:0:0:0:0:
36,192,27593,1,0,0:0:0:0:
329,192,27593,1,0,0:0:0:0:
475,192,27771,128,0,27948:0:0:0:0:
256,192,27771,1,0,0:0:0:0:
402,192,27948,1,0,0:0:0:0:
329,192,27948,1,0,0:0:0:0:
109,192,27948,1,0,0:0:0:0:snare1.wav
475,192,28126,128,0,28303:0:0:0:0:
256,192,28126,1,0,0:0:0:0:
329,192,28303,1,0,0:0:0:0:
36,192,28303,1,0,0:0:0:0:
475,192,28481,128,0,28658:0:0:0:0:
256,192,28481,1,0,0:0:0:0:
36,192,28658,1,0,0:0:0:0:snare1.wav
402,192,28658,1,0,0:0:0:0:
329,192,28658,1,4,0:0:0:0:
109,192,28658,1,0,0:0:0:0:
475,192,28836,128,0,29013:0:0:0:0:
256,192,28836,1,0,0:0:0:0:
329,192,29013,1,4,0:0:0:0:
109,192,29013,1,0,0:0:0:0:
36,192,29013,1,0,0:0:0:0:snare1.wav
402,192,29013,1,0,0:0:0:0:
256,192,29191,1,0,0:0:0:0:snare1.wav
36,192,29191,1,0,0:0:0:0:
109,192,29368,1,0,0:0:0:0:
329,192,29368,1,0,0:0:0:0:snare1.wav
182,192,29546,1,0,0:0:0:0:
402,192,29546,1,0,0:0:0:0:snare1.wav
256,192,29723,128,0,30433:0:0:0:0:
36,192,29723,1,0,0:0:0:0:snare1.wav
109,192,29723,1,0,0:0:0:0:
329,192,29723,1,0,0:0:0:0:
475,192,29901,1,0,0:0:0:0:snare1.wav
402,192,29901,1,0,0:0:0:0:
182,192,29901,1,0,0:0:0:0:
36,192,30078,1,0,0:0:0:0:snare1.wav
109,192,30078,1,0,0:0:0:0:
329,192,30078,1,0,0:0:0:0:
475,192,30256,1,0,0:0:0:0:snare1.wav
402,192,30256,1,0,0:0:0:0:
182,192,30256,1,0,0:0:0:0:
109,192,30345,1,0,0:0:0:0:
36,192,30433,1,4,0:0:0:0:
329,192,30433,1,0,0:0:0:0:
475,192,30433,1,0,0:0:0:0:
475,192,30611,1,0,0:0:0:0:
329,192,30788,1,0,0:0:0:0:
36,192,30788,1,0,0:0:0:0:
475,192,30966,1,0,0:0:0:0:
329,192,31144,1,0,0:0:0:0:
36,192,31144,1,0,0:0:0:0:
475,192,31321,1,0,0:0:0:0:
329,192,31499,1,0,0:0:0:0:
36,192,31499,1,0,0:0:0:0:
475,192,31676,1,0,0:0:0:0:
329,192,31854,1,0,0:0:0:0:
36,192,31854,1,0,0:0:0:0:
182,192,32031,1,0,0:0:0:0:
329,192,32209,1,0,0:0:0:0:
36,192,32209,1,0,0:0:0:0:
182,192,32386,1,0,0:0:0:0:
329,192,32564,1,0,0:0:0:0:
36,192,32564,1,0,0:0:0:0:
182,192,32741,1,0,0:0:0:0:
329,192,32919,1,0,0:0:0:0:
36,192,32919,1,0,0:0:0:0:
182,192,33096,1,2,0:0:0:0:
36,192,33096,1,0,0:0:0:0:
256,192,33185,1,2,0:0:0:0:
329,192,33274,1,2,0:0:0:0:
475,192,33274,1,0,0:0:0:0:
182,192,33451,1,0,0:0:0:0:
329,192,33629,1,0,0:0:0:0:
475,192,33629,1,0,0:0:0:0:
182,192,33806,1,0,0:0:0:0:
329,192,33984,1,0,0:0:0:0:
475,192,33984,1,0,0:0:0:0:
182,192,34161,1,0,0:0:0:0:
329,192,34339,1,0,0:0:0:0:
475,192,34339,1,0,0:0:0:0:
182,192,34516,1,0,0:0:0:0:
402,192,34694,1,0,0:0:0:0:
109,192,34694,1,0,0:0:0:0:
256,192,34871,1,0,0:0:0:0:
402,192,35049,1,0,0:0:0:0:
109,192,35049,1,0,0:0:0:0:
256,192,35226,1,0,0:0:0:0:
402,192,35404,1,0,0:0:0:0:
109,192,35404,1,0,0:0:0:0:
256,192,35581,1,0,0:0:0:0:
329,192,35759,1,0,0:0:0:0:
36,192,35759,1,2,0:0:0:0:
475,192,35759,1,0,0:0:0:0:
109,192,35848,1,2,0:0:0:0:
182,192,35936,1,2,0:0:0:0:
256,192,36025,1,2,0:0:0:0:
329,192,36114,1,0,0:0:0:0:
475,192,36114,1,0,0:0:0:0:
36,192,36114,1,2,0:0:0:0:
329,192,36291,1,0,0:0:0:0:
109,192,36469,1,0,0:0:0:0:
475,192,36469,1,0,0:0:0:0:
329,192,36646,1,0,0:0:0:0:
109,192,36824,1,0,0:0:0:0:
475,192,36824,1,0,0:0:0:0:
329,192,37001,1,0,0:0:0:0:
109,192,37179,1,0,0:0:0:0:
475,192,37179,1,0,0:0:0:0:
329,192,37357,1,0,0:0:0:0:
256,192,37534,1,0,0:0:0:0:
36,192,37534,1,0,0:0:0:0:
402,192,37712,1,0,0:0:0:0:
256,192,37889,1,0,0:0:0:0:
36,192,37889,1,0,0:0:0:0:
402,192,38067,1,0,0:0:0:0:
256,192,38244,1,0,0:0:0:0:
36,192,38244,1,0,0:0:0:0:
402,192,38422,1,0,0:0:0:0:
256,192,38599,1,4,0:0:0:0:
36,192,38599,1,0,0:0:0:0:
475,192,38599,1,0,0:0:0:0:
402,192,38777,1,0,0:0:0:0:
36,192,38954,1,0,0:0:0:0:
475,192,38954,1,0,0:0:0:0:
256,192,38954,1,4,0:0:0:0:
329,192,39132,1,0,0:0:0:0:
182,192,39309,1,0,0:0:0:0:
475,192,39309,1,0,0:0:0:0:
36,192,39309,1,0,0:0:0:0:snare1.wav
329,192,39487,1,0,0:0:0:0:
182,192,39664,128,0,39930:0:0:0:0:
36,192,39664,1,0,0:0:0:0:
329,192,39842,128,0,40108:0:0:0:0:
475,192,39842,1,0,0:0:0:0:
182,192,40019,128,0,40286:0:0:0:0:
36,192,40019,1,0,0:0:0:0:snare1.wav
329,192,40197,128,0,40374:0:0:0:0:
475,192,40197,1,0,0:0:0:0:
182,192,40374,1,0,0:0:0:0:
36,192,40374,1,4,0:0:0:0:
475,192,40374,1,0,0:0:0:0:
329,192,40552,1,0,0:0:0:0:
36,192,40729,1,0,0:0:0:0:snare1.wav
475,192,40729,1,0,0:0:0:0:
182,192,40729,1,0,0:0:0:0:
329,192,40907,1,0,0:0:0:0:
475,192,41084,1,0,0:0:0:0:
182,192,41084,1,0,0:0:0:0:snare1.wav
256,192,41173,1,0,0:0:0:0:snare1.wav
329,192,41262,1,0,0:0:0:0:
36,192,41262,1,0,0:0:0:0:snare1.wav
109,192,41351,1,0,0:0:0:0:snare1.wav
402,192,41351,1,0,0:0:0:0:
475,192,41439,1,0,0:0:0:0:
182,192,41439,1,0,0:0:0:0:snare1.wav
402,192,41617,1,0,0:0:0:0:snare1.wav
109,192,41617,1,0,0:0:0:0:
182,192,41706,1,0,0:0:0:0:
329,192,41706,1,0,0:0:0:0:snare1.wav
36,192,41794,1,0,0:0:0:0:
475,192,41794,1,0,0:0:0:0:snare1.wav
256,192,41794,1,4,0:0:0:0:
402,192,41972,1,0,0:0:0:0:
182,192,41972,1,0,0:0:0:0:
256,192,42149,1,0,0:0:0:0:
36,192,42149,1,0,0:0:0:0:snare1.wav
475,192,42149,1,0,0:0:0:0:
36,192,42327,128,0,42682:0:0:0:0:
402,192,42504,128,0,42859:0:0:0:0:
256,192,42504,1,0,0:0:0:0:
109,192,42682,128,0,42859:0:0:0:0:
256,192,42682,1,0,0:0:0:0:
329,192,42859,128,0,43215:0:0:0:0:
182,192,42859,1,0,0:0:0:0:
475,192,42859,1,0,0:0:0:0:snare1.wav
182,192,43037,128,0,43215:0:0:0:0:
36,192,43215,1,0,0:0:0:0:
256,192,43215,1,0,0:0:0:0:
36,192,43392,1,0,0:0:0:0:
256,192,43392,1,0,0:0:0:0:
402,192,43570,1,0,0:0:0:0:
256,192,43570,1,0,0:0:0:0:
36,192,43570,1,0,0:0:0:0:snare1.wav
329,192,43747,128,0,44102:0:0:0:0:
475,192,43925,128,0,44280:0:0:0:0:
109,192,43925,1,0,0:0:0:0:
256,192,44102,128,0,44457:0:0:0:0:
109,192,44102,1,0,0:0:0:0:
402,192,44280,128,0,44635:0:0:0:0:
36,192,44280,1,0,0:0:0:0:snare1.wav
182,192,44280,1,0,0:0:0:0:
109,192,44457,128,0,44635:0:0:0:0:
329,192,44635,1,0,0:0:0:0:
475,192,44635,1,0,0:0:0:0:
475,192,44812,1,0,0:0:0:0:
329,192,44812,1,0,0:0:0:0:
109,192,44990,1,0,0:0:0:0:
329,192,44990,1,0,0:0:0:0:snare1.wav
475,192,44990,1,0,0:0:0:0:
475,192,45167,128,0,45700:0:0:0:0:
36,192,45345,128,0,45700:0:0:0:0:
182,192,45345,1,0,0:0:0:0:
329,192,45522,128,0,45700:0:0:0:0:
182,192,45522,1,0,0:0:0:0:
256,192,45700,128,0,46055:0:0:0:0:
402,192,45700,1,0,0:0:0:0:
109,192,45700,1,0,0:0:0:0:snare1.wav
109,192,45877,128,0,46055:0:0:0:0:
182,192,46055,1,0,0:0:0:0:
402,192,46055,1,0,0:0:0:0:
402,192,46232,1,0,0:0:0:0:
182,192,46232,1,0,0:0:0:0:
402,192,46410,1,0,0:0:0:0:
182,192,46410,1,0,0:0:0:0:snare1.wav
36,192,46410,1,0,0:0:0:0:
109,192,46587,128,0,46765:0:0:0:0:
475,192,46765,128,0,47120:0:0:0:0:
182,192,46765,1,0,0:0:0:0:
36,192,46942,128,0,47120:0:0:0:0:
329,192,46942,1,0,0:0:0:0:
256,192,47120,128,0,47475:0:0:0:0:
402,192,47120,1,0,0:0:0:0:
109,192,47120,1,0,0:0:0:0:snare1.wav
329,192,47297,1,0,0:0:0:0:
182,192,47386,1,0,0:0:0:0:
36,192,47475,1,0,0:0:0:0:
475,192,47475,1,4,0:0:0:0:
109,192,47475,1,0,0:0:0:0:
402,192,47475,1,0,0:0:0:0:
329,192,47652,1,0,0:0:0:0:
182,192,47652,1,0,0:0:0:0:
256,192,47830,1,0,0:0:0:0:
109,192,47830,1,0,0:0:0:0:snare1.wav
402,192,47830,1,0,0:0:0:0:
182,192,48007,128,0,48362:0:0:0:0:
329,192,48185,128,0,48540:0:0:0:0:
475,192,48185,1,0,0:0:0:0:
36,192,48362,128,0,48717:0:0:0:0:
475,192,48362,1,0,0:0:0:0:
402,192,48540,128,0,48895:0:0:0:0:
256,192,48540,1,0,0:0:0:0:
109,192,48540,1,0,0:0:0:0:snare1.wav
182,192,48717,128,0,48895:0:0:0:0:
329,192,48895,1,0,0:0:0:0:
109,192,48895,1,0,0:0:0:0:
329,192,49073,1,0,0:0:0:0:
109,192,49073,1,0,0:0:0:0:
329,192,49250,1,0,0:0:0:0:
109,192,49250,1,0,0:0:0:0:
475,192,49250,1,0,0:0:0:0:snare1.wav
182,192,49428,128,0,49605:0:0:0:0:
402,192,49605,128,0,49783:0:0:0:0:
329,192,49605,1,0,0:0:0:0:
109,192,49783,128,0,49960:0:0:0:0:
182,192,49783,1,0,0:0:0:0:
36,192,49960,1,4,0:0:0:0:
329,192,49960,1,0,0:0:0:0:
475,192,49960,1,0,0:0:0:0:snare1.wav
256,192,49960,128,0,50315:0:0:0:0:
109,192,50315,1,0,0:0:0:0:
329,192,50315,1,0,0:0:0:0:
475,192,50315,1,0,0:0:0:0:
109,192,50493,1,0,0:0:0:0:
329,192,50493,1,0,0:0:0:0:
109,192,50670,1,0,0:0:0:0:
329,192,50670,1,0,0:0:0:0:
475,192,50670,1,0,0:0:0:0:snare1.wav
402,192,50848,128,0,51203:0:0:0:0:
182,192,51025,128,0,51203:0:0:0:0:
36,192,51025,1,0,0:0:0:0:
256,192,51203,128,0,51735:0:0:0:0:
475,192,51203,1,0,0:0:0:0:
109,192,51380,1,0,0:0:0:0:
36,192,51380,128,0,51735:0:0:0:0:
329,192,51380,1,0,0:0:0:0:snare1.wav
475,192,51558,128,0,51735:0:0:0:0:
402,192,51735,1,0,0:0:0:0:
182,192,51735,1,0,0:0:0:0:
109,192,51913,1,0,0:0:0:0:
329,192,51913,1,0,0:0:0:0:
36,192,52090,1,0,0:0:0:0:
329,192,52090,1,0,0:0:0:0:
475,192,52090,1,4,0:0:0:0:
182,192,52090,1,0,0:0:0:0:
402,192,52268,1,0,0:0:0:0:
182,192,52268,1,0,0:0:0:0:
109,192,52445,1,0,0:0:0:0:
329,192,52445,1,0,0:0:0:0:
256,192,52623,1,0,0:0:0:0:snare1.wav
36,192,52623,1,0,0:0:0:0:
475,192,52623,1,0,0:0:0:0:
182,192,52800,1,0,0:0:0:0:
402,192,52800,1,0,0:0:0:0:
329,192,52978,1,0,0:0:0:0:
109,192,52978,1,0,0:0:0:0:
36,192,53155,1,0,0:0:0:0:
475,192,53155,1,4,0:0:0:0:
329,192,53155,1,0,0:0:0:0:
182,192,53155,1,0,0:0:0:0:
402,192,54575,1,0,0:0:0:0:
329,192,55286,1,0,0:0:0:0:
402,192,55463,1,0,0:0:0:0:
402,192,55996,1,0,0:0:0:0:
36,192,55996,1,0,0:0:0:0:
256,192,55996,1,0,0:0:0:0:
402,192,56706,1,0,0:0:0:0:
402,192,57416,1,0,0:0:0:0:
329,192,58126,1,0,0:0:0:0:
402,192,58303,1,0,0:0:0:0:
402,192,58836,1,0,0:0:0:0:
109,192,58836,1,0,0:0:0:0:
402,192,59546,1,0,0:0:0:0:
402,192,60256,1,0,0:0:0:0:
329,192,60966,1,0,0:0:0:0:
402,192,61144,1,0,0:0:0:0:
402,192,61676,1,0,0:0:0:0:
36,192,61676,1,4,0:0:0:0:
256,192,61676,1,0,0:0:0:0:
182,192,64516,128,0,65936:0:0:0:0:
475,192,64516,1,0,0:0:0:0:
329,192,64516,1,0,0:0:0:0:
36,192,64516,1,0,0:0:0:0:
109,192,64516,1,0,0:0:0:0:
256,192,64694,1,0,0:0:0:0:
36,192,64871,1,0,0:0:0:0:
329,192,64871,1,0,0:0:0:0:
475,192,64871,1,0,0:0:0:0:snare1.wav
256,192,65049,1,0,0:0:0:0:
109,192,65226,1,0,0:0:0:0:
402,192,65226,1,0,0:0:0:0:
329,192,65404,1,0,0:0:0:0:
36,192,65581,1,0,0:0:0:0:
256,192,65581,1,0,0:0:0:0:
475,192,65581,1,0,0:0:0:0:snare1.wav
402,192,65759,1,0,0:0:0:0:
329,192,65936,128,0,67357:0:0:0:0:
36,192,65936,1,0,0:0:0:0:
475,192,65936,1,0,0:0:0:0:
109,192,66114,1,0,0:0:0:0:
182,192,66291,1,0,0:0:0:0:
36,192,66291,1,0,0:0:0:0:
475,192,66291,1,0,0:0:0:0:snare1.wav
256,192,66469,1,0,0:0:0:0:
109,192,66646,1,0,0:0:0:0:
402,192,66646,1,0,0:0:0:0:
256,192,66824,1,0,0:0:0:0:
36,192,67001,1,0,0:0:0:0:
475,192,67001,1,0,0:0:0:0:snare1.wav
182,192,67001,1,0,0:0:0:0:
109,192,67179,1,0,0:0:0:0:
256,192,67357,128,0,69487:0:0:0:0:
402,192,67357,1,0,0:0:0:0:
36,192,67357,1,0,0:0:0:0:
182,192,67534,1,0,0:0:0:0:
109,192,67712,1,0,0:0:0:0:
329,192,67712,1,0,0:0:0:0:
475,192,67712,1,0,0:0:0:0:snare1.wav
475,192,67889,128,0,68244:0:0:0:0:
36,192,67889,1,0,0:0:0:0:
329,192,68067,1,0,0:0:0:0:
182,192,68067,1,0,0:0:0:0:
109,192,68244,1,0,0:0:0:0:
36,192,68422,1,0,0:0:0:0:
182,192,68422,1,0,0:0:0:0:
475,192,68422,1,0,0:0:0:0:snare1.wav
36,192,68599,128,0,68954:0:0:0:0:
402,192,68599,1,0,0:0:0:0:
329,192,68777,1,0,0:0:0:0:
475,192,68777,1,0,0:0:0:0:
109,192,68954,1,0,0:0:0:0:
182,192,69132,128,0,69487:0:0:0:0:
36,192,69132,1,0,0:0:0:0:
329,192,69132,1,0,0:0:0:0:
475,192,69132,1,0,0:0:0:0:snare1.wav
475,192,69309,128,0,69664:0:0:0:0:
402,192,69309,1,0,0:0:0:0:
36,192,69487,128,0,70197:0:0:0:0:
329,192,69487,1,0,0:0:0:0:
109,192,69487,1,0,0:0:0:0:
256,192,69664,1,0,0:0:0:0:
475,192,69842,1,0,0:0:0:0:snare1.wav
329,192,69842,1,0,0:0:0:0:
182,192,69842,1,0,0:0:0:0:
256,192,70019,1,0,0:0:0:0:
329,192,70197,128,0,71617:0:0:0:0:
182,192,70197,128,0,71617:0:0:0:0:
109,192,70197,1,0,0:0:0:0:
475,192,70197,1,0,0:0:0:0:
402,192,70197,1,0,0:0:0:0:
256,192,70374,1,0,0:0:0:0:
475,192,70552,1,0,0:0:0:0:snare1.wav
36,192,70552,1,0,0:0:0:0:
109,192,70552,1,0,0:0:0:0:
402,192,70729,1,0,0:0:0:0:
36,192,70907,1,0,0:0:0:0:
475,192,70907,1,0,0:0:0:0:
109,192,71084,1,0,0:0:0:0:
36,192,71262,1,0,0:0:0:0:
475,192,71262,1,0,0:0:0:0:snare1.wav
402,192,71262,1,0,0:0:0:0:
256,192,71439,1,0,0:0:0:0:
475,192,71617,128,0,72682:0:0:0:0:
36,192,71617,128,0,72682:0:0:0:0:
109,192,71617,1,0,0:0:0:0:
402,192,71617,1,0,0:0:0:0:
256,192,71794,1,0,0:0:0:0:
402,192,71972,1,0,0:0:0:0:snare1.wav
109,192,71972,1,0,0:0:0:0:
329,192,71972,1,0,0:0:0:0:
256,192,72149,1,0,0:0:0:0:
329,192,72327,1,0,0:0:0:0:
182,192,72327,1,0,0:0:0:0:
256,192,72504,1,0,0:0:0:0:
402,192,72682,1,0,0:0:0:0:snare1.wav
329,192,72682,1,0,0:0:0:0:
182,192,72682,1,0,0:0:0:0:
109,192,72682,1,4,0:0:0:0:
256,192,72859,1,0,0:0:0:0:
475,192,73037,1,4,0:0:0:0:
36,192,73037,1,0,0:0:0:0:
182,192,73037,1,0,0:0:0:0:
329,192,73037,1,0,0:0:0:0:
402,192,73215,1,0,0:0:0:0:
109,192,73215,1,0,0:0:0:0:
329,192,73392,1,0,0:0:0:0:
182,192,73392,1,0,0:0:0:0:
36,192,73570,1,0,0:0:0:0:
475,192,73570,1,4,0:0:0:0:
109,192,73570,1,0,0:0:0:0:
402,192,73570,1,0,0:0:0:0:
182,192,73747,1,0,0:0:0:0:
329,192,73747,1,0,0:0:0:0:
109,192,73925,1,0,0:0:0:0:
402,192,73925,1,0,0:0:0:0:
256,192,74102,1,0,0:0:0:0:
36,192,74102,1,0,0:0:0:0:
475,192,74102,1,4,0:0:0:0:
36,192,74280,1,0,0:0:0:0:
256,192,74280,128,0,74812:0:0:0:0:
475,192,74280,1,0,0:0:0:0:
182,192,74280,1,0,0:0:0:0:
329,192,74280,1,0,0:0:0:0:
109,192,74635,1,0,0:0:0:0:
402,192,74635,1,0,0:0:0:0:snare1.wav
475,192,74812,1,0,0:0:0:0:snare1.wav
329,192,74812,1,0,0:0:0:0:
182,192,74812,128,0,75167:0:0:0:0:
475,192,74990,1,0,0:0:0:0:snare1.wav
329,192,74990,1,0,0:0:0:0:
475,192,75167,1,0,0:0:0:0:snare1.wav
329,192,75167,1,0,0:0:0:0:
36,192,75167,128,0,75522:0:0:0:0:
329,192,75345,1,0,0:0:0:0:
256,192,75433,1,0,0:0:0:0:
402,192,75522,1,0,0:0:0:0:
182,192,75522,1,0,0:0:0:0:
109,192,75700,1,0,0:0:0:0:
182,192,75788,1,0,0:0:0:0:
475,192,75877,1,4,0:0:0:0:
36,192,75877,1,0,0:0:0:0:
256,192,75877,128,0,77297:0:0:0:0:
329,192,75877,1,0,0:0:0:0:
109,192,75877,1,0,0:0:0:0:
182,192,76055,1,0,0:0:0:0:
36,192,76232,1,0,0:0:0:0:
475,192,76232,1,4,0:0:0:0:
109,192,76232,1,0,0:0:0:0:
329,192,76232,1,0,0:0:0:0:
182,192,76410,1,0,0:0:0:0:
402,192,76587,1,0,0:0:0:0:
109,192,76587,1,0,0:0:0:0:
182,192,76765,1,0,0:0:0:0:
475,192,76942,1,0,0:0:0:0:snare1.wav
36,192,76942,1,0,0:0:0:0:
329,192,76942,1,0,0:0:0:0:
402,192,77120,1,0,0:0:0:0:
182,192,77297,128,0,78717:0:0:0:0:
475,192,77297,1,0,0:0:0:0:
36,192,77297,1,0,0:0:0:0:
329,192,77475,1,0,0:0:0:0:
402,192,77652,1,0,0:0:0:0:
475,192,77652,1,0,0:0:0:0:snare1.wav
36,192,77652,1,0,0:0:0:0:
256,192,77830,1,0,0:0:0:0:
109,192,78007,1,0,0:0:0:0:
475,192,78007,1,0,0:0:0:0:
329,192,78185,1,0,0:0:0:0:
475,192,78362,1,0,0:0:0:0:snare1.wav
36,192,78362,1,0,0:0:0:0:
402,192,78362,1,0,0:0:0:0:
329,192,78540,1,0,0:0:0:0:
36,192,78717,1,0,0:0:0:0:
256,192,78717,1,0,0:0:0:0:
109,192,78895,1,0,0:0:0:0:
329,192,78895,1,0,0:0:0:0:
36,192,79073,1,0,0:0:0:0:
256,192,79073,1,0,0:0:0:0:
475,192,79073,1,0,0:0:0:0:snare1.wav
329,192,79250,1,0,0:0:0:0:
109,192,79250,1,0,0:0:0:0:
402,192,79428,1,0,0:0:0:0:
182,192,79428,1,0,0:0:0:0:
109,192,79605,1,0,0:0:0:0:
329,192,79605,1,0,0:0:0:0:
256,192,79783,1,0,0:0:0:0:
36,192,79783,1,0,0:0:0:0:
475,192,79783,1,0,0:0:0:0:snare1.wav
402,192,79960,1,0,0:0:0:0:
182,192,79960,1,0,0:0:0:0:
329,192,80138,1,0,0:0:0:0:
109,192,80138,1,0,0:0:0:0:
256,192,80315,1,0,0:0:0:0:
36,192,80315,1,0,0:0:0:0:
475,192,80493,1,0,0:0:0:0:snare1.wav
182,192,80493,1,0,0:0:0:0:
329,192,80493,1,0,0:0:0:0:
256,192,80670,128,0,81025:0:0:0:0:
402,192,80670,1,0,0:0:0:0:
109,192,80670,1,0,0:0:0:0:
182,192,81025,1,0,0:0:0:0:
475,192,81025,1,0,0:0:0:0:
36,192,81084,1,0,0:0:0:0:
329,192,81084,1,0,0:0:0:0:
182,192,81144,1,0,0:0:0:0:
475,192,81144,1,0,0:0:0:0:
329,192,81380,1,0,0:0:0:0:
109,192,81380,1,0,0:0:0:0:
182,192,81469,1,0,0:0:0:0:
402,192,81469,1,0,0:0:0:0:
256,192,81558,1,0,0:0:0:0:
475,192,81558,1,0,0:0:0:0:
36,192,81558,1,0,0:0:0:0:
329,192,81646,1,0,0:0:0:0:
36,192,81735,1,0,0:0:0:0:
182,192,81735,1,0,0:0:0:0:
402,192,81735,1,0,0:0:0:0:
256,192,81824,1,0,0:0:0:0:
475,192,81913,1,0,0:0:0:0:
329,192,81913,1,0,0:0:0:0:
109,192,81913,1,0,0:0:0:0:
402,192,82001,1,0,0:0:0:0:
36,192,82090,1,0,0:0:0:0:
182,192,82090,1,0,0:0:0:0:
256,192,82179,1,0,0:0:0:0:
475,192,82268,1,0,0:0:0:0:
329,192,82268,1,0,0:0:0:0:
109,192,82268,1,0,0:0:0:0:
402,192,82357,1,0,0:0:0:0:
36,192,82445,1,0,0:0:0:0:
182,192,82445,1,0,0:0:0:0:
256,192,82534,1,0,0:0:0:0:
475,192,82623,1,0,0:0:0:0:
329,192,82623,1,0,0:0:0:0:
109,192,82623,1,0,0:0:0:0:
402,192,82712,1,0,0:0:0:0:
36,192,82800,1,0,0:0:0:0:
182,192,82800,1,0,0:0:0:0:
256,192,82889,1,0,0:0:0:0:
329,192,82978,1,0,0:0:0:0:
475,192,82978,1,0,0:0:0:0:
109,192,82978,1,0,0:0:0:0:
182,192,83067,1,0,0:0:0:0:
109,192,83155,1,0,0:0:0:0:
402,192,83155,1,0,0:0:0:0:
329,192,83244,1,0,0:0:0:0:
36,192,83333,1,0,0:0:0:0:
182,192,83333,1,0,0:0:0:0:
402,192,83333,1,0,0:0:0:0:
109,192,83422,1,0,0:0:0:0:
475,192,83510,1,0,0:0:0:0:
329,192,83510,1,0,0:0:0:0:
256,192,83599,1,0,0:0:0:0:
36,192,83688,1,0,0:0:0:0:
182,192,83688,1,0,0:0:0:0:
402,192,83688,1,0,0:0:0:0:
109,192,83777,1,0,0:0:0:0:
475,192,83865,1,0,0:0:0:0:
329,192,83865,1,0,0:0:0:0:
256,192,83954,1,0,0:0:0:0:
36,192,84043,1,0,0:0:0:0:
182,192,84043,1,0,0:0:0:0:
402,192,84043,1,0,0:0:0:0:
109,192,84132,1,0,0:0:0:0:
475,192,84220,1,0,0:0:0:0:
329,192,84220,1,0,0:0:0:0:
256,192,84309,1,0,0:0:0:0:
182,192,84398,1,0,0:0:0:0:
36,192,84398,1,0,0:0:0:0:
402,192,84398,1,0,0:0:0:0:
36,192,84575,1,0,0:0:0:0:
329,192,84575,1,0,0:0:0:0:
109,192,84664,1,0,0:0:0:0:
402,192,84664,1,0,0:0:0:0:
182,192,84753,1,0,0:0:0:0:
475,192,84753,1,0,0:0:0:0:
109,192,84842,1,0,0:0:0:0:
402,192,84842,1,0,0:0:0:0:
36,192,84930,1,0,0:0:0:0:
329,192,84930,1,0,0:0:0:0:
36,192,85108,1,0,0:0:0:0:
475,192,85108,1,0,0:0:0:0:
109,192,85197,1,0,0:0:0:0:
402,192,85197,1,0,0:0:0:0:
182,192,85286,1,0,0:0:0:0:
329,192,85286,1,0,0:0:0:0:
182,192,85463,1,0,0:0:0:0:
329,192,85463,1,0,0:0:0:0:
182,192,85641,1,0,0:0:0:0:
329,192,85641,1,0,0:0:0:0:
475,192,85818,128,0,86173:0:0:0:0:
36,192,85818,128,0,87593:0:0:0:0:
329,192,85818,128,0,86528:0:0:0:0:
182,192,85818,128,0,86883:0:0:0:0:
